Details for this torrent 

Lethal Weapon 4 1998 {1080p}{5.1}{DTS MA}{PcTechPaul}
Type:
Video > HD - Movies
Files:
8
Size:
2.35 GiB (2527821293 Bytes)
Info:
IMDB
Spoken language(s):
English
Tag(s):
Mel Gibson Danny Glover Joe Pesci Rene Russo Jet Li Chris Rock Al Sapienza Stephen Blackehart Gilley Grey Danny Arroyo
Uploaded:
2013-12-20 15:05:41 GMT
By:
PCTECHPAUL
Seeders:
1
Leechers:
0
Comments
0  

Info Hash:
 
3D91F42D749227F0A21F8CF3E3B0740427C998E8




 Get this torrent  Anonymous Download
(Problems with magnets links are fixed by upgrading your torrent client!)
*****************************************************************
Lethal Weapon 4 (1998)
*****************************************************************
Encoded By PcTechPaul

-------------------------------------------------------------------------------
General Information
-------------------------------------------------------------------------------
Type.................: Movie
Platform.............: Video
More Info............:

Video Format.........: mp4
Video Bitrate........: 2248
Resolution...........: 1080p
Color................: 8 bit
FPS..................: 23.976
Source...............: Bluray
Original Format......: NTSC
Genre................: Action | Crime | Thriller
IMDb Rating..........: 6.5
Movie Information....: http://www.imdb.com/title/tt0122151/

-------------------------------------------------------------------------------
Release Notes
-------------------------------------------------------------------------------
Complete name : M:Lethal Weapon SagaLethal Weapon 4lethalweapon4.mp4
Format : MPEG-4
Format profile : Base Media / Version 2
Codec ID : mp42
File size : 2.35 GiB
Duration : 2h 7mn
Overall bit rate mode : Variable
Overall bit rate : 2637 Kbps

Video
ID : 1
Format : AVC
Format/Info : Advanced Video Codec
Format profile : High@L5.0
Format settings, CABAC : Yes
Format settings, ReFrames : 16 frames
Codec ID : avc1
Codec ID/Info : Advanced Video Coding
Duration : 2h 7mn
Bit rate : 2248 Kbps
Width : 1920 pixels
Height : 800 pixels
Display aspect ratio : 2.40:1
Frame rate mode : Variable
Frame rate : 23.976 fps
Minimum frame rate : 23.974 fps
Maximum frame rate : 23.981 fps
Color space : YUV
Chroma subsampling : 4:2:0
Bit depth : 8 bits
Scan type : Progressive
Bits/(Pixel*Frame) : 0.061
Stream size : 2.00 GiB (85%)
Writing library : x264 core 130 r2273 b3065e6
Encoding settings : cabac=1 / ref=16 / deblock=1:0:0 / analyse=0x3:0x113 / me=hex / subme=7 / psy=1 / psy_rd=1.20:0.20 / mixed_ref=1 / me_range=16 / chroma_me=1 / trellis=1 / 8x8dct=1 / cqm=0 / deadzone=21,11 / fast_pskip=1 / chroma_qp_offset=-3 / threads=12 / lookahead_threads=2 / sliced_threads=0 / nr=0 / decimate=1 / interlaced=0 / bluray_compat=0 / constrained_intra=0 / bframes=16 / b_pyramid=2 / b_adapt=1 / b_bias=0 / direct=1 / weightb=1 / open_gop=0 / weightp=2 / keyint=240 / keyint_min=24 / scenecut=40 / intra_refresh=0 / rc_lookahead=40 / rc=2pass / mbtree=1 / bitrate=2248 / ratetol=1.0 / qcomp=0.60 / qpmin=0 / qpmax=69 / qpstep=4 / cplxblur=20.0 / qblur=0.5 / ip_ratio=1.40 / aq=1:1.20

Color primaries : BT.709
Transfer characteristics : BT.709
Matrix coefficients : BT.709

Audio
ID : 2
Format : AAC
Format/Info : Advanced Audio Codec
Format profile : LC
Codec ID : 40
Duration : 2h 7mn
Bit rate mode : Variable
Bit rate : 384 Kbps
Maximum bit rate : 536 Kbps
Channel(s) : 6 channels
Channel positions : Front: L C R, Side: L R, LFE
Sampling rate : 48.0 KHz
Compression mode : Lossy
Stream size : 350 MiB (15%)
Language : English